Лоретта годжи песни



Что приобрести для поддержания здоровья. Контролировать нормальный вес. Дыхательная часть обязана терпеть циклы отлично. Насос непременно упражнять, чтобы оно могло перенести усилия. Приготовить мозг для ограничения от встряски, потому что срыв стремится разрушить даже самое могучее здоровье.
Поискать средства на освобождение органов от нахлебников. Ветхость не будет ощущаться, когда тело будет отрабатывать критичные функции так как предусмотрено природой. В данном исследовании разговор будет об экзотическом способе обновления обмена веществ.

лоретта годжи песни

Качество: MP3 CBR 320 Kbit/Sec / WAV

Время звучания: 45:04

Кол-во треков: 12

Кол-во файлов: 1 / 1

Размер: 109 Mb / 479 Mb

После закулисного скандала с песней Un amore grande, написанной Umberto Tozzi специально для Loretta Goggi для исполнения на фестивале Санремо 1984, и изменившим своё решение в пользу Pupo буквально за несколько минут до начала выступления, певица в 1986 году появляется на фестивале Санремо, но не в качестве участницы конкурса, а в роли ведущей. Соведущими фестиваля в этом году выступили Anna Pettinelli, Mauro Micheloni и Sergio Mancinelli. Причём она стала первой женщиной, исполняющей функции основной ведущей в истории фестиваля. Позже на фестивале Санремо 1992 года, Pupo признался, что было потрачено 75 миллионов лир, чтобы заполучить четвёртое место фестиваля, но умолчал каким образом ему удалось заполучить саму песню.Занятно, но после этого прямого признания к певцу не было применено никаких судебных исков. Песня "C'e poesia" была написана специально для певицы популярным итальянским автором исполнителем Mango и мелодия песни была использована в качестве музыкальной темы фестиваля. Сама песня добралась до вершины итальянских хит-парадов и получила статус золота, по количеству продаж.

Альбом, в который вошла и одноимённая заглавная песня, был выпущен после успешного дебюта на Санремо в качестве ведущей и содержит шесть оригинальных песен исполненных самой Loretta Goggi и ещё шесть песен - дуэтов с популярными авторами исполнителями: Mango, Mario Lavezzi, Zucchero, Dario Baldan Bembo, Enrico Ruggeri и Gianni Togni. Авторами песен-дуэтов выступили всё те же исполнители, а Mango кроме уже известных C’e Poesia и Lei verra (песня была исполнена певцом на Санремо 1986 – 14 место в общем зачёте), является автором песни Io nascero. Ещё одна песня для сольного исполнения - Non la puoi chiamare vita, была написана Dario Baldan Bembo .Среди других авторов песен - Piero Cassano и Franco Fasano. Альбом не только получил золотой статус, но и стал одним из самых успешных альбомов певицы. Вторая попытка предпринятая в 1988 году (C'e Poesia Due) не смогла повторить успех этого альбома.

Все песни были исполнены на популярном шоу Лоретты в прямом эфире в прайм-тайм канала RAI Uno в 1986 году.

01. C'e Poesia (3:58)

02. Lei Verra (Con Mango) (3:57)

03. Se Io Non Ti Avessi Amato (3:53)

04. Signora (Con Mario Lavezzi) (3:38)

05. Leggera Confusione (3:39)

06. Un Piccolo Aiuto (Con Zucchero) (3:24)

(Pop) Loretta Goggi - 7 альбомов - 1981-1991, APE (image+.cue), lossless

Битрейт аудио. lossless

Рипы личных дисков :

Сканы 300dpi

Треклист :

#77 Il Mio Prossimo Amore 3:52

Assassina 3:00

Se Mi Sposerò 3:58

Nun T'Allargà 4:02

E Pensare Che Ti Amo 3:52

Exact Audio Copy V1.0 beta 2 from 29. April 2011

Отчёт EAC об извлечении, выполненном 26. декабря 2012, 0:10

Loretta Goggi / Il Mio Prossimo Amore

Дисковод: PIONEER DVD-RW DVR-220L Adapter: 1 ID: 0

Режим чтения. Достоверность

Использование точного потока. Да

Отключение кэша аудио. Да

Использование указателей C2. Нет

Коррекция смещения при чтении. 6

Трек | Старт | Длительность | Начальный сектор | Конечный сектор

1 | 0:00.00 | 3:58.41 | 0 | 17890

2 | 3:58.41 | 3:06.05 | 17891 | 31845

3 | 7:04.46 | 4:00.53 | 31846 | 49898

4 | 11:05.24 | 4:05.55 | 49899 | 68328

5 | 15:11.04 | 3:58.45 | 68329 | 86223

6 | 19:09.49 | 4:13.39 | 86224 | 105237

Источники:
canzone.ru, sun-torrents.name

Следующие статьи:



Комментариев пока нет!
Ваше имя *
Ваш Email *

Сумма цифр справа: код подтверждения


загрузка...

Еще статьи о питании




Новое на сайте


Стальная эмалированная посуда производства сербия



Страница №2 купить кастрюлю из нержавеющей стали



В эмалированной кастрюле скол можно ли в ней квасить капусту



Российские кастрюли из нержавеющей стали тима



Рейтинг посуды из нержавеющей стали отзывы





ПОПУЛЯРНОЕ


  • Выбираем сыр - разновидности и сорта (1449 просмотров)
  • Можно ли хранить пищу в нержавеющей кастрюле (315 просмотров)
  • Если поставить в духовку эмалированную кастрюлю что будет (218 просмотров)
  • Ягоды годжи харьков форум (213 просмотров)
  • Можно ли квасить капусту в нержавеющей кастрюле (213 просмотров)

  • Читать еще:


    Ягоды годжи не подделка

    Что купить для обновления самочувствия. Придумать средства на освобождение печени от глистов. Кроветворная часть должна работать на уровне. Приобрести ...


    Посуда и принадлежности для МВП

    Микроволновая компакт-печьПечь данного типа дает возможность использовать все виды приготовления пищи и является безусловным лидером среди прочих. С такой печью ...


    Как готовить для детей от 1 до 14 лет

    Общие принципы приготовления пищи для детей от 1 года до 14Продукты для питания детей должны быть ...